  0
SECTION
  2
HEADER
  9
$ACADVER
  1
AC1015
  9
$ACADMAINTVER
 70
    20
  9
$DWGCODEPAGE
  3
ANSI_1252
  9
$INSBASE
 10
0.0
 20
0.0
 30
0.0
  9
$EXTMIN
 10
4.71245728020058
 20
3.274198033314061
 30
0.0
  9
$EXTMAX
 10
11.06806494769596
 20
7.383156737346446
 30
0.0
  9
$LIMMIN
 10
0.0
 20
0.0
  9
$LIMMAX
 10
12.0
 20
9.0
  9
$ORTHOMODE
 70
     0
  9
$REGENMODE
 70
     1
  9
$FILLMODE
 70
     1
  9
$QTEXTMODE
 70
     0
  9
$MIRRTEXT
 70
     1
  9
$LTSCALE
 40
1.0
  9
$ATTMODE
 70
     1
  9
$TEXTSIZE
 40
0.09375
  9
$TRACEWID
 40
0.05
  9
$TEXTSTYLE
  7
Standard
  9
$CLAYER
  8
0
  9
$CELTYPE
  6
ByLayer
  9
$CECOLOR
 62
   256
  9
$CELTSCALE
 40
1.0
  9
$DISPSILH
 70
     0
  9
$DIMSCALE
 40
0.5208333333333334
  9
$DIMASZ
 40
0.18
  9
$DIMEXO
 40
0.0625
  9
$DIMDLI
 40
0.38
  9
$DIMRND
 40
0.0
  9
$DIMDLE
 40
0.0
  9
$DIMEXE
 40
0.18
  9
$DIMTP
 40
0.0
  9
$DIMTM
 40
0.0
  9
$DIMTXT
 40
0.18
  9
$DIMCEN
 40
0.09
  9
$DIMTSZ
 40
0.0
  9
$DIMTOL
 70
     0
  9
$DIMLIM
 70
     0
  9
$DIMTIH
 70
     1
  9
$DIMTOH
 70
     1
  9
$DIMSE1
 70
     0
  9
$DIMSE2
 70
     0
  9
$DIMTAD
 70
     0
  9
$DIMZIN
 70
     0
  9
$DIMBLK
  1

  9
$DIMASO
 70
     1
  9
$DIMSHO
 70
     1
  9
$DIMPOST
  1

  9
$DIMAPOST
  1

  9
$DIMALT
 70
     0
  9
$DIMALTD
 70
     2
  9
$DIMALTF
 40
25.4
  9
$DIMLFAC
 40
1.0
  9
$DIMTOFL
 70
     0
  9
$DIMTVP
 40
0.0
  9
$DIMTIX
 70
     0
  9
$DIMSOXD
 70
     0
  9
$DIMSAH
 70
     0
  9
$DIMBLK1
  1

  9
$DIMBLK2
  1

  9
$DIMSTYLE
  2
Standard
  9
$DIMCLRD
 70
     0
  9
$DIMCLRE
 70
     0
  9
$DIMCLRT
 70
     0
  9
$DIMTFAC
 40
1.0
  9
$DIMGAP
 40
0.09
  9
$DIMJUST
 70
     0
  9
$DIMSD1
 70
     0
  9
$DIMSD2
 70
     0
  9
$DIMTOLJ
 70
     1
  9
$DIMTZIN
 70
     0
  9
$DIMALTZ
 70
     0
  9
$DIMALTTZ
 70
     0
  9
$DIMUPT
 70
     0
  9
$DIMDEC
 70
     2
  9
$DIMTDEC
 70
     2
  9
$DIMALTU
 70
     2
  9
$DIMALTTD
 70
     2
  9
$DIMTXSTY
  7
Standard
  9
$DIMAUNIT
 70
     0
  9
$DIMADEC
 70
     0
  9
$DIMALTRND
 40
0.0
  9
$DIMAZIN
 70
     0
  9
$DIMDSEP
 70
    46
  9
$DIMATFIT
 70
     3
  9
$DIMFRAC
 70
     0
  9
$DIMLDRBLK
  1

  9
$DIMLUNIT
 70
     2
  9
$DIMLWD
 70
    -2
  9
$DIMLWE
 70
    -2
  9
$DIMTMOVE
 70
     0
  9
$LUNITS
 70
     2
  9
$LUPREC
 70
     4
  9
$SKETCHINC
 40
0.1
  9
$FILLETRAD
 40
0.5
  9
$AUNITS
 70
     0
  9
$AUPREC
 70
     0
  9
$MENU
  1
.
  9
$ELEVATION
 40
0.0
  9
$PELEVATION
 40
0.0
  9
$THICKNESS
 40
0.0
  9
$LIMCHECK
 70
     0
  9
$CHAMFERA
 40
0.5
  9
$CHAMFERB
 40
0.5
  9
$CHAMFERC
 40
1.0
  9
$CHAMFERD
 40
0.0
  9
$SKPOLY
 70
     0
  9
$TDCREATE
 40
2454097.471897917
  9
$TDUCREATE
 40
2454097.680231250
  9
$TDUPDATE
 40
2454097.473900232
  9
$TDUUPDATE
 40
2454097.682233565
  9
$TDINDWG
 40
0.0020028588
  9
$TDUSRTIMER
 40
0.0020028588
  9
$USRTIMER
 70
     1
  9
$ANGBASE
 50
0.0
  9
$ANGDIR
 70
     0
  9
$PDMODE
 70
     0
  9
$PDSIZE
 40
0.0
  9
$PLINEWID
 40
0.0
  9
$SPLFRAME
 70
     0
  9
$SPLINETYPE
 70
     6
  9
$SPLINESEGS
 70
     8
  9
$HANDSEED
  5
FA
  9
$SURFTAB1
 70
     6
  9
$SURFTAB2
 70
     6
  9
$SURFTYPE
 70
     6
  9
$SURFU
 70
     6
  9
$SURFV
 70
     6
  9
$UCSBASE
  2

  9
$UCSNAME
  2

  9
$UCSORG
 10
0.0
 20
0.0
 30
0.0
  9
$UCSXDIR
 10
1.0
 20
0.0
 30
0.0
  9
$UCSYDIR
 10
0.0
 20
1.0
 30
0.0
  9
$UCSORTHOREF
  2

  9
$UCSORTHOVIEW
 70
     0
  9
$UCSORGTOP
 10
0.0
 20
0.0
 30
0.0
  9
$UCSORGBOTTOM
 10
0.0
 20
0.0
 30
0.0
  9
$UCSORGLEFT
 10
0.0
 20
0.0
 30
0.0
  9
$UCSORGRIGHT
 10
0.0
 20
0.0
 30
0.0
  9
$UCSORGFRONT
 10
0.0
 20
0.0
 30
0.0
  9
$UCSORGBACK
 10
0.0
 20
0.0
 30
0.0
  9
$PUCSBASE
  2

  9
$PUCSNAME
  2

  9
$PUCSORG
 10
0.0
 20
0.0
 30
0.0
  9
$PUCSXDIR
 10
1.0
 20
0.0
 30
0.0
  9
$PUCSYDIR
 10
0.0
 20
1.0
 30
0.0
  9
$PUCSORTHOREF
  2

  9
$PUCSORTHOVIEW
 70
     0
  9
$PUCSORGTOP
 10
0.0
 20
0.0
 30
0.0
  9
$PUCSORGBOTTOM
 10
0.0
 20
0.0
 30
0.0
  9
$PUCSORGLEFT
 10
0.0
 20
0.0
 30
0.0
  9
$PUCSORGRIGHT
 10
0.0
 20
0.0
 30
0.0
  9
$PUCSORGFRONT
 10
0.0
 20
0.0
 30
0.0
  9
$PUCSORGBACK
 10
0.0
 20
0.0
 30
0.0
  9
$USERI1
 70
     0
  9
$USERI2
 70
     0
  9
$USERI3
 70
     0
  9
$USERI4
 70
     0
  9
$USERI5
 70
     0
  9
$USERR1
 40
0.09375
  9
$USERR2
 40
0.0
  9
$USERR3
 40
0.0
  9
$USERR4
 40
0.0
  9
$USERR5
 40
0.0
  9
$WORLDVIEW
 70
     1
  9
$SHADEDGE
 70
     3
  9
$SHADEDIF
 70
    70
  9
$TILEMODE
 70
     1
  9
$MAXACTVP
 70
    64
  9
$PINSBASE
 10
0.0
 20
0.0
 30
0.0
  9
$PLIMCHECK
 70
     0
  9
$PEXTMIN
 10
1.000000000000000E+20
 20
1.000000000000000E+20
 30
1.000000000000000E+20
  9
$PEXTMAX
 10
-1.000000000000000E+20
 20
-1.000000000000000E+20
 30
-1.000000000000000E+20
  9
$PLIMMIN
 10
0.0
 20
0.0
  9
$PLIMMAX
 10
12.0
 20
9.0
  9
$UNITMODE
 70
     0
  9
$VISRETAIN
 70
     1
  9
$PLINEGEN
 70
     0
  9
$PSLTSCALE
 70
     1
  9
$TREEDEPTH
 70
  3020
  9
$CMLSTYLE
  2
Standard
  9
$CMLJUST
 70
     0
  9
$CMLSCALE
 40
1.0
  9
$PROXYGRAPHICS
 70
     1
  9
$MEASUREMENT
 70
     0
  9
$CELWEIGHT
370
    -1
  9
$ENDCAPS
280
     0
  9
$JOINSTYLE
280
     0
  9
$LWDISPLAY
290
     0
  9
$INSUNITS
 70
     1
  9
$HYPERLINKBASE
  1

  9
$STYLESHEET
  1

  9
$XEDIT
290
     1
  9
$CEPSNTYPE
380
     0
  9
$PSTYLEMODE
290
     1
  9
$FINGERPRINTGUID
  2
{6B60931B-6924-44D4-BD0E-E5C7D2C89163}
  9
$VERSIONGUID
  2
{772C1FB6-6578-4E73-9DBD-680C4FC4F6EA}
  9
$EXTNAMES
290
     1
  9
$PSVPSCALE
 40
0.0
  9
$OLESTARTUP
290
     0
  0
ENDSEC
  0
SECTION
  2
CLASSES
  0
CLASS
  1
ACDBDICTIONARYWDFLT
  2
AcDbDictionaryWithDefault
  3
ObjectDBX Classes
 90
        0
280
     0
281
     0
  0
CLASS
  1
ACDBPLACEHOLDER
  2
AcDbPlaceHolder
  3
ObjectDBX Classes
 90
        0
280
     0
281
     0
  0
CLASS
  1
LAYOUT
  2
AcDbLayout
  3
ObjectDBX Classes
 90
        0
280
     0
281
     0
  0
CLASS
  1
TABLESTYLE
  2
AcDbTableStyle
  3
ObjectDBX Classes
 90
     2047
280
     0
281
     0
  0
CLASS
  1
SORTENTSTABLE
  2
AcDbSortentsTable
  3
ObjectDBX Classes
 90
        0
280
     0
281
     0
  0
CLASS
  1
DICTIONARYVAR
  2
AcDbDictionaryVar
  3
ObjectDBX Classes
 90
        0
280
     0
281
     0
  0
ENDSEC
  0
SECTION
  2
TABLES
  0
TABLE
  2
VPORT
  5
8
330
0
100
AcDbSymbolTable
 70
     3
  0
VPORT
  5
F2
330
8
100
AcDbSymbolTableRecord
100
AcDbViewportTableRecord
  2
*Active
 70
     0
 10
0.0
 20
0.0
 11
1.0
 21
1.0
 12
8.722222221116382
 22
5.283088231257247
 13
0.0
 23
0.0
 14
0.5
 24
0.5
 15
0.5
 25
0.5
 16
0.0
 26
0.0
 36
1.0
 17
0.0
 27
0.0
 37
0.0
 40
14.57123484541713
 41
1.466327827191867
 42
50.0
 43
0.0
 44
0.0
 50
0.0
 51
0.0
 71
     0
 72
   100
 73
     1
 74
     3
 75
     0
 76
     0
 77
     0
 78
     0
281
     0
 65
     1
110
0.0
120
0.0
130
0.0
111
1.0
121
0.0
131
0.0
112
0.0
122
1.0
132
0.0
 79
     0
146
0.0
  0
ENDTAB
  0
TABLE
  2
LTYPE
  5
5
330
0
100
AcDbSymbolTable
 70
     1
  0
LTYPE
  5
14
330
5
100
AcDbSymbolTableRecord
100
AcDbLinetypeTableRecord
  2
ByBlock
 70
     0
  3

 72
    65
 73
     0
 40
0.0
  0
LTYPE
  5
15
330
5
100
AcDbSymbolTableRecord
100
AcDbLinetypeTableRecord
  2
ByLayer
 70
     0
  3

 72
    65
 73
     0
 40
0.0
  0
LTYPE
  5
16
330
5
100
AcDbSymbolTableRecord
100
AcDbLinetypeTableRecord
  2
Continuous
 70
     0
  3
Solid line
 72
    65
 73
     0
 40
0.0
  0
ENDTAB
  0
TABLE
  2
LAYER
  5
2
102
{ACAD_XDICTIONARY
360
C1
102
}
330
0
100
AcDbSymbolTable
 70
     5
  0
LAYER
  5
10
330
2
100
AcDbSymbolTableRecord
100
AcDbLayerTableRecord
  2
0
 70
     0
 62
     7
  6
Continuous
370
    -3
390
F
  0
LAYER
  5
34
330
2
100
AcDbSymbolTableRecord
100
AcDbLayerTableRecord
  2
L
 70
     0
 62
     7
  6
Continuous
370
    -3
390
F
  0
LAYER
  5
45
330
2
100
AcDbSymbolTableRecord
100
AcDbLayerTableRecord
  2
Defpoints
 70
     0
 62
     7
  6
Continuous
290
     0
370
    -3
390
F
  0
LAYER
  5
88
330
2
100
AcDbSymbolTableRecord
100
AcDbLayerTableRecord
  2
tx
 70
     0
 62
   150
  6
Continuous
370
    -3
390
F
  0
LAYER
  5
B8
330
2
100
AcDbSymbolTableRecord
100
AcDbLayerTableRecord
  2
MAIN
 70
     0
 62
     7
  6
Continuous
370
    -3
390
F
  0
ENDTAB
  0
TABLE
  2
STYLE
  5
3
330
0
100
AcDbSymbolTable
 70
     6
  0
STYLE
  5
11
330
3
100
AcDbSymbolTableRecord
100
AcDbTextStyleTableRecord
  2
Standard
 70
     0
 40
0.0
 41
1.0
 50
0.0
 71
     0
 42
0.09375
  3
txt
  4

  0
STYLE
  5
35
330
3
100
AcDbSymbolTableRecord
100
AcDbTextStyleTableRecord
  2
REG
 70
     0
 40
0.0
 41
1.0
 50
0.0
 71
     0
 42
0.09375
  3
E:\R13\com\fonts\ARCHITXT.SHX
  4

  0
STYLE
  5
36
330
3
100
AcDbSymbolTableRecord
100
AcDbTextStyleTableRecord
  2
DIMTXT
 70
     0
 40
0.0
 41
1.0
 50
0.0
 71
     0
 42
1.125
  3
archt.shx
  4

  0
STYLE
  5
B9
330
3
100
AcDbSymbolTableRecord
100
AcDbTextStyleTableRecord
  2
BLD
 70
     0
 40
0.0
 41
1.0
 50
0.0
 71
     0
 42
0.09375
  3
romand.shx
  4

  0
STYLE
  5
BA
330
3
100
AcDbSymbolTableRecord
100
AcDbTextStyleTableRecord
  2
REG2
 70
     0
 40
0.0
 41
0.9
 50
0.0
 71
     0
 42
0.75
  3
E:\R13\com\fonts\romans.shx
  4

  0
STYLE
  5
BB
330
3
100
AcDbSymbolTableRecord
100
AcDbTextStyleTableRecord
  2
ROM2
 70
     0
 40
0.0
 41
0.95
 50
0.0
 71
     0
 42
1.0
  3
ROMANS
  4

  0
ENDTAB
  0
TABLE
  2
VIEW
  5
6
330
0
100
AcDbSymbolTable
 70
     0
  0
ENDTAB
  0
TABLE
  2
UCS
  5
7
330
0
100
AcDbSymbolTable
 70
     0
  0
ENDTAB
  0
TABLE
  2
APPID
  5
9
330
0
100
AcDbSymbolTable
 70
     2
  0
APPID
  5
12
330
9
100
AcDbSymbolTableRecord
100
AcDbRegAppTableRecord
  2
ACAD
 70
     0
  0
APPID
  5
C0
330
9
100
AcDbSymbolTableRecord
100
AcDbRegAppTableRecord
  2
ACAD_PSEXT
 70
     0
  0
ENDTAB
  0
TABLE
  2
DIMSTYLE
  5
A
330
0
100
AcDbSymbolTable
 70
    10
100
AcDbDimStyleTable
 71
     1
340
27
  0
DIMSTYLE
105
27
102
{ACAD_REACTORS
330
CE
330
DC
102
}
330
A
100
AcDbSymbolTableRecord
100
AcDbDimStyleTableRecord
  2
Standard
 70
     0
271
     2
272
     2
340
11
  0
DIMSTYLE
105
37
330
A
100
AcDbSymbolTableRecord
100
AcDbDimStyleTableRecord
  2
1
 70
     0
 41
1.125
 42
0.5
 43
0.375
 44
1.19921875
 46
0.5
 73
     0
 74
     0
 77
     1
 78
     3
140
1.125
141
0.125
146
0.8
147
0.5625
172
     1
174
     1
176
   133
177
   133
178
   150
271
     3
272
     3
276
     1
279
     1
340
36
  0
DIMSTYLE
105
38
330
A
100
AcDbSymbolTableRecord
100
AcDbDimStyleTableRecord
  2
1$2
 70
     0
 41
1.5
 42
0.5
 43
0.375
 44
1.19921875
 46
0.5
 73
     0
 74
     0
 77
     1
 78
     3
140
0.75
141
0.125
146
0.8
147
0.5625
172
     1
174
     1
176
   133
177
   133
178
   150
271
     3
272
     3
276
     1
279
     1
340
36
342
30
  0
DIMSTYLE
105
39
330
A
100
AcDbSymbolTableRecord
100
AcDbDimStyleTableRecord
  2
1$4
 70
     0
 41
1.5
 42
0.5
 43
0.375
 44
1.19921875
 46
0.5
 73
     0
 74
     0
 77
     1
 78
     3
140
0.75
141
0.125
146
0.8
147
0.5625
172
     1
173
     1
174
     1
176
   133
177
   133
178
   150
271
     3
272
     3
276
     1
279
     1
340
36
344
30
  0
DIMSTYLE
105
3A
330
A
100
AcDbSymbolTableRecord
100
AcDbDimStyleTableRecord
  2
1$3
 70
     0
 41
1.5
 42
0.5
 43
0.375
 44
1.19921875
 46
0.5
 73
     0
 74
     0
 77
     1
 78
     3
140
0.75
141
0.125
146
0.8
147
0.5625
172
     1
174
     1
176
   133
177
   133
178
   150
271
     3
272
     3
276
     1
279
     1
340
36
342
30
  0
DIMSTYLE
105
3B
330
A
100
AcDbSymbolTableRecord
100
AcDbDimStyleTableRecord
  2
1$7
 70
     0
 41
1.0
 42
0.5
 43
0.375
 44
1.19921875
 46
0.5
 73
     0
 74
     0
 77
     1
 78
     3
140
0.75
141
0.125
146
0.8
147
0.5625
172
     1
174
     1
176
   133
177
   133
178
   150
271
     3
272
     3
276
     1
279
     1
340
36
341
2B
  0
DIMSTYLE
105
BC
330
A
100
AcDbSymbolTableRecord
100
AcDbDimStyleTableRecord
  2
Standard$2
 70
     0
 40
0.0
 41
0.625
 42
0.5
 43
0.375
 44
0.375
 78
     4
 79
     1
140
0.625
141
0.125
146
0.8
147
0.25
176
   133
177
   133
178
   150
271
     3
272
     3
276
     1
288
     1
340
BB
  0
DIMSTYLE
105
BD
330
A
100
AcDbSymbolTableRecord
100
AcDbDimStyleTableRecord
  2
Standard$4
 70
     0
 40
0.0
 41
0.625
 42
0.5
 43
0.375
 44
0.375
 78
     4
 79
     1
140
0.625
141
0.125
146
0.8
147
0.25
173
     1
176
   133
177
   133
178
   150
271
     3
272
     3
276
     1
288
     1
340
BB
343
30
  0
DIMSTYLE
105
BE
330
A
100
AcDbSymbolTableRecord
100
AcDbDimStyleTableRecord
  2
Standard$3
 70
     0
 40
0.0
 41
0.625
 42
0.5
 43
0.375
 44
0.375
 78
     4
 79
     1
140
0.625
141
0.125
146
0.8
147
0.25
176
   133
177
   133
178
   150
271
     3
272
     3
276
     1
288
     1
340
BB
  0
DIMSTYLE
105
BF
330
A
100
AcDbSymbolTableRecord
100
AcDbDimStyleTableRecord
  2
Standard$7
 70
     0
 40
0.0
 41
0.625
 42
0.5
 43
0.375
 44
0.375
 78
     4
 79
     1
140
0.5
141
0.125
146
0.8
147
0.25
176
   133
177
   133
178
   150
271
     3
272
     3
276
     1
289
     0
340
BB
342
30
  0
ENDTAB
  0
TABLE
  2
BLOCK_RECORD
  5
1
330
0
100
AcDbSymbolTable
 70
     7
  0
BLOCK_RECORD
  5
1F
330
1
100
AcDbSymbolTableRecord
100
AcDbBlockTableRecord
  2
*Model_Space
340
22
  0
BLOCK_RECORD
  5
1B
330
1
100
AcDbSymbolTableRecord
100
AcDbBlockTableRecord
  2
*Paper_Space
340
1E
  0
BLOCK_RECORD
  5
23
330
1
100
AcDbSymbolTableRecord
100
AcDbBlockTableRecord
  2
*Paper_Space0
340
26
  0
BLOCK_RECORD
  5
2B
330
1
100
AcDbSymbolTableRecord
100
AcDbBlockTableRecord
  2
_Dot
340
0
  0
BLOCK_RECORD
  5
30
330
1
100
AcDbSymbolTableRecord
100
AcDbBlockTableRecord
  2
_DotSmall
340
0
  0
BLOCK_RECORD
  5
CF
330
1
100
AcDbSymbolTableRecord
100
AcDbBlockTableRecord
  2
*D5
340
0
  0
BLOCK_RECORD
  5
DD
330
1
100
AcDbSymbolTableRecord
100
AcDbBlockTableRecord
  2
*D6
340
0
  0
ENDTAB
  0
ENDSEC
  0
SECTION
  2
BLOCKS
  0
BLOCK
  5
20
330
1F
100
AcDbEntity
  8
0
100
AcDbBlockBegin
  2
*Model_Space
 70
     0
 10
0.0
 20
0.0
 30
0.0
  3
*Model_Space
  1

  0
ENDBLK
  5
21
330
1F
100
AcDbEntity
  8
0
100
AcDbBlockEnd
  0
BLOCK
  5
1C
330
1B
100
AcDbEntity
 67
     1
  8
0
100
AcDbBlockBegin
  2
*Paper_Space
 70
     0
 10
0.0
 20
0.0
 30
0.0
  3
*Paper_Space
  1

  0
ENDBLK
  5
1D
330
1B
100
AcDbEntity
 67
     1
  8
0
100
AcDbBlockEnd
  0
BLOCK
  5
24
330
23
100
AcDbEntity
  8
0
100
AcDbBlockBegin
  2
*Paper_Space0
 70
     0
 10
0.0
 20
0.0
 30
0.0
  3
*Paper_Space0
  1

  0
ENDBLK
  5
25
330
23
100
AcDbEntity
  8
0
100
AcDbBlockEnd
  0
BLOCK
  5
2E
330
2B
100
AcDbEntity
  8
0
100
AcDbBlockBegin
  2
_Dot
 70
     0
 10
0.0
 20
0.0
 30
0.0
  3
_Dot
  1

  0
LWPOLYLINE
  5
2C
330
2B
100
AcDbEntity
  8
L
 62
     0
100
AcDbPolyline
 90
        2
 70
     1
 43
0.5
 10
-0.25
 20
0.0
 42
1.0
 10
0.25
 20
0.0
 42
1.0
  0
LINE
  5
2D
330
2B
100
AcDbEntity
  8
L
 62
     0
370
    -2
100
AcDbLine
 10
-0.5
 20
0.0
 30
0.0
 11
-1.0
 21
0.0
 31
0.0
  0
ENDBLK
  5
2F
330
2B
100
AcDbEntity
  8
0
100
AcDbBlockEnd
  0
BLOCK
  5
32
330
30
100
AcDbEntity
  8
0
 48
0.116666
100
AcDbBlockBegin
  2
_DotSmall
 70
     0
 10
0.0
 20
0.0
 30
0.0
  3
_DotSmall
  1

  0
LWPOLYLINE
  5
31
330
30
100
AcDbEntity
  8
0
  6
ByBlock
 62
     0
100
AcDbPolyline
 90
        2
 70
     1
 43
0.5
 10
-0.0625
 20
0.0
 42
1.0
 10
0.0625
 20
0.0
 42
1.0
  0
ENDBLK
  5
33
330
30
100
AcDbEntity
  8
0
 48
0.116666
100
AcDbBlockEnd
  0
BLOCK
  5
DA
330
CF
100
AcDbEntity
  8
0
100
AcDbBlockBegin
  2
*D5
 70
     1
 10
0.0
 20
0.0
 30
0.0
  3
*D5
  1

  0
LINE
  5
D0
330
CF
100
AcDbEntity
  8
0
 62
     0
370
    -2
100
AcDbLine
 10
5.688278170308277
 20
5.523066650286956
 30
0.0
 11
5.688278170308277
 21
7.383156737346446
 31
0.0
  0
LINE
  5
D1
330
CF
100
AcDbEntity
  8
0
 62
     0
370
    -2
100
AcDbLine
 10
11.04392281207222
 20
6.658124036904021
 30
0.0
 11
11.04392281207222
 21
7.383156737346446
 31
0.0
  0
LINE
  5
D2
330
CF
100
AcDbEntity
  8
0
 62
     0
370
    -2
100
AcDbLine
 10
5.782028170308277
 20
7.289406737346446
 30
0.0
 11
8.17860049119025
 21
7.289406737346446
 31
0.0
  0
LINE
  5
D3
330
CF
100
AcDbEntity
  8
0
 62
     0
370
    -2
100
AcDbLine
 10
10.95017281207222
 20
7.289406737346446
 30
0.0
 11
8.55360049119025
 21
7.289406737346446
 31
0.0
  0
SOLID
  5
D4
330
CF
100
AcDbEntity
  8
0
 62
     0
100
AcDbTrace
 10
5.782028170308277
 20
7.305031737346446
 30
0.0
 11
5.782028170308277
 21
7.273781737346446
 31
0.0
 12
5.688278170308277
 22
7.289406737346446
 32
0.0
 13
5.688278170308277
 23
7.289406737346446
 33
0.0
  0
SOLID
  5
D5
330
CF
100
AcDbEntity
  8
0
 62
     0
100
AcDbTrace
 10
10.95017281207222
 20
7.305031737346446
 30
0.0
 11
10.95017281207222
 21
7.273781737346446
 31
0.0
 12
11.04392281207222
 22
7.289406737346446
 32
0.0
 13
11.04392281207222
 23
7.289406737346446
 33
0.0
  0
MTEXT
  5
D6
330
CF
100
AcDbEntity
  8
0
 62
     0
100
AcDbMText
 10
8.36610049119025
 20
7.289406737346446
 30
0.0
 40
0.09375
 41
0.0
 71
     5
 72
     1
  1
\A1;5.36
 73
     1
 44
1.0
1001
ACAD
1000
MTEXTBEGIN
1070
    73
1070
     1
1070
    44
1040
1.0
1070
    74
1070
     0
1000
MTEXTEND
  0
POINT
  5
D7
330
CF
100
AcDbEntity
  8
Defpoints
 62
     0
100
AcDbPoint
 10
5.688278170308277
 20
5.490514566953623
 30
0.0
  0
POINT
  5
D8
330
CF
100
AcDbEntity
  8
Defpoints
 62
     0
100
AcDbPoint
 10
11.04392281207222
 20
6.625571953570688
 30
0.0
  0
POINT
  5
D9
330
CF
100
AcDbEntity
  8
Defpoints
 62
     0
100
AcDbPoint
 10
11.04392281207222
 20
7.289406737346446
 30
0.0
  0
ENDBLK
  5
DB
330
CF
100
AcDbEntity
  8
0
100
AcDbBlockEnd
  0
BLOCK
  5
E8
330
DD
100
AcDbEntity
  8
0
100
AcDbBlockBegin
  2
*D6
 70
     1
 10
0.0
 20
0.0
 30
0.0
  3
*D6
  1

  0
LINE
  5
DE
330
DD
100
AcDbEntity
  8
0
 62
     0
370
    -2
100
AcDbLine
 10
6.797447648738805
 20
6.625571953570688
 30
0.0
 11
4.743707280200582
 21
6.625571953570688
 31
0.0
  0
LINE
  5
DF
330
DD
100
AcDbEntity
  8
0
 62
     0
370
    -2
100
AcDbLine
 10
6.071447648739147
 20
4.892571953568694
 30
0.0
 11
4.743707280200581
 21
4.892571953568695
 31
0.0
  0
LINE
  5
E0
330
DD
100
AcDbEntity
  8
0
 62
     0
370
    -2
100
AcDbLine
 10
4.837457280200582
 20
6.531821953570688
 30
0.0
 11
4.837457280200581
 21
5.852821953569692
 31
0.0
  0
LINE
  5
E1
330
DD
100
AcDbEntity
  8
0
 62
     0
370
    -2
100
AcDbLine
 10
4.837457280200581
 20
4.986321953568695
 30
0.0
 11
4.837457280200581
 21
5.665321953569692
 31
0.0
  0
SOLID
  5
E2
330
DD
100
AcDbEntity
  8
0
 62
     0
100
AcDbTrace
 10
4.821832280200582
 20
6.531821953570688
 30
0.0
 11
4.853082280200582
 21
6.531821953570688
 31
0.0
 12
4.837457280200582
 22
6.625571953570688
 32
0.0
 13
4.837457280200582
 23
6.625571953570688
 33
0.0
  0
SOLID
  5
E3
330
DD
100
AcDbEntity
  8
0
 62
     0
100
AcDbTrace
 10
4.821832280200581
 20
4.986321953568695
 30
0.0
 11
4.853082280200581
 21
4.986321953568695
 31
0.0
 12
4.837457280200581
 22
4.892571953568695
 32
0.0
 13
4.837457280200581
 23
4.892571953568695
 33
0.0
  0
MTEXT
  5
E4
330
DD
100
AcDbEntity
  8
0
 62
     0
100
AcDbMText
 10
4.83745728020058
 20
5.759071953569693
 30
0.0
 40
0.09375
 41
0.0
 71
     5
 72
     1
  1
\A1;1.73
 73
     1
 44
1.0
1001
ACAD
1000
MTEXTBEGIN
1070
    73
1070
     1
1070
    44
1040
1.0
1070
    74
1070
     0
1000
MTEXTEND
  0
POINT
  5
E5
330
DD
100
AcDbEntity
  8
Defpoints
 62
     0
100
AcDbPoint
 10
6.829999732072138
 20
6.625571953570688
 30
0.0
  0
POINT
  5
E6
330
DD
100
AcDbEntity
  8
Defpoints
 62
     0
100
AcDbPoint
 10
6.10399973207248
 20
4.892571953568694
 30
0.0
  0
POINT
  5
E7
330
DD
100
AcDbEntity
  8
Defpoints
 62
     0
100
AcDbPoint
 10
4.837457280200581
 20
4.892571953568695
 30
0.0
  0
ENDBLK
  5
E9
330
DD
100
AcDbEntity
  8
0
100
AcDbBlockEnd
  0
ENDSEC
  0
SECTION
  2
ENTITIES
  0
LWPOLYLINE
  5
CD
330
1F
100
AcDbEntity
  8
L
 62
     3
 48
0.058333
100
AcDbPolyline
 90
      130
 70
     1
 43
0.0
 10
5.755708980873151
 20
5.530016398014954
 42
1.215447433731096
 10
5.727999732071367
 20
5.445571953568578
 10
6.023999732072553
 20
5.445571953568578
 42
-0.4142135623764248
 10
6.063999732072517
 20
5.405571953569523
 10
6.063999732072517
 20
4.932571953569567
 42
0.4142135623697653
 10
6.10399973207248
 20
4.892571953568694
 10
6.525999732072961
 20
4.892571953568694
 10
6.540999732072378
 20
4.907571953568112
 10
6.555999732071796
 20
4.892571953568694
 10
6.638999732072335
 20
4.892571953568694
 42
0.9999999999999998
 10
6.638999732072335
 20
4.992571953569058
 10
6.403999732072662
 20
4.992571953569058
 42
-0.4142135623597758
 10
6.393999732072444
 20
5.002571953569276
 10
6.393999732072444
 20
5.032571953569931
 42
0.4142135623664355
 10
6.373999732072462
 20
5.052571953570367
 10
6.35399973207248
 20
5.052571953570367
 42
0.4142135623664355
 10
6.333999732072499
 20
5.032571953569931
 10
6.333999732072044
 20
5.012571953569494
 42
-0.4142135623664355
 10
6.313999732072517
 20
4.992571953569058
 10
6.173999732071735
 20
4.992571953569058
 42
-0.4142135623730951
 10
6.163999732071971
 20
5.002571953569276
 10
6.163999732071971
 20
5.245571953569669
 42
-0.4142135623730951
 10
6.173999732072189
 20
5.255571953569887
 10
6.508999732071316
 20
5.255571953569887
 42
0.9999999999999998
 10
6.508999732071316
 20
5.355571953570251
 10
6.366999732077857
 20
5.355571953570251
 42
-0.4142135623730951
 10
6.356999732077639
 20
5.365571953570469
 10
6.356999732076729
 20
5.395571953571124
 42
0.9999999999999998
 10
6.293999732075718
 20
5.395571953571124
 10
6.293999732074809
 20
5.365571953570469
 42
-0.4142135623730951
 10
6.28399973207459
 20
5.355571953570251
 10
6.173999732072189
 20
5.355571953570251
 42
-0.4142135623730951
 10
6.163999732071971
 20
5.365571953570469
 10
6.163999732071971
 20
6.47557195357287
 42
-0.4142135623464566
 10
6.17399973207128
 20
6.485571953573089
 10
6.283999732071862
 20
6.485571953573089
 42
-0.4142135623730951
 10
6.29399973207208
 20
6.47557195357287
 10
6.29399973207208
 20
6.250571953568869
 42
0.4142135623597758
 10
6.40399973206766
 20
6.140571953568287
 10
6.518999732071534
 20
6.140571953568287
 42
0.9999999999999998
 10
6.518999732071534
 20
6.220571953570033
 10
6.403999732072207
 20
6.220571953570033
 42
-0.4142135623597758
 10
6.393999732072444
 20
6.230571953570251
 10
6.393999732072444
 20
6.47557195357287
 42
-0.4142135623730951
 10
6.403999732072662
 20
6.485571953573089
 10
6.87999973207232
 20
6.485571953573089
 42
0.4142135623797547
 10
6.899999732072302
 20
6.505571953571706
 42
-0.4142135623797547
 10
6.919999732072284
 20
6.525571953572143
 10
8.087974092072983
 20
6.525571953572029
 42
-0.4142135623664355
 10
8.107974092072964
 20
6.505571953571593
 42
0.4142135623664355
 10
8.127974092072491
 20
6.485571953571156
 10
8.167974092072455
 20
6.485571953571156
 42
0.4142135623730951
 10
8.187974092072437
 20
6.505571953571593
 42
-0.4142135623664355
 10
8.207974092072419
 20
6.525571953572029
 10
9.248948452074984
 20
6.525571953572143
 10
9.263948452071673
 20
6.525709854849555
 10
9.278948452071546
 20
6.525571953570324
 10
9.335948452072699
 20
6.525571953570324
 42
-0.4142135623797547
 10
9.355948452072226
 20
6.505571953571706
 42
0.4142135623730951
 10
9.375948452072663
 20
6.48557195357127
 10
9.415948452072171
 20
6.48557195357127
 42
0.4142135623730951
 10
9.435948452072153
 20
6.505571953571706
 42
-0.4142135623730951
 10
9.45594845207168
 20
6.525571953572143
 10
10.63392281207237
 20
6.525571953572143
 42
-0.4142135624130528
 10
10.64392281207259
 20
6.515571953570105
 10
10.64392281207213
 20
6.230571953570251
 42
-0.4142135623597758
 10
10.63392281207237
 20
6.220571953570033
 10
10.51892281207259
 20
6.220571953570033
 42
1.000000000005684
 10
10.51892281207304
 20
6.140571953568287
 10
10.63392281207692
 20
6.140571953568287
 42
0.4142135623597758
 10
10.74392281207249
 20
6.250571953568869
 10
10.74392281207204
 20
6.47557195357287
 42
-0.4142135623730951
 10
10.75392281207226
 20
6.485571953573089
 10
10.86392281207284
 20
6.485571953573089
 42
-0.4142135623730951
 10
10.87392281207306
 20
6.47557195357287
 10
10.87392281207215
 20
5.365571953570469
 42
-0.4142135623597758
 10
10.86392281207239
 20
5.355571953570251
 10
10.75392281206953
 20
5.355571953570251
 42
-0.4142135623597758
 10
10.74392281206977
 20
5.365571953570469
 10
10.74392281206931
 20
5.395571953571124
 42
0.9999999999999998
 10
10.68092281206739
 20
5.395571953571124
 10
10.68092281206648
 20
5.365571953570469
 42
-0.4142135623464566
 10
10.67092281206717
 20
5.355571953570251
 10
10.5289228120728
 20
5.355571953570251
 42
0.9999999999999998
 10
10.5289228120728
 20
5.255571953571706
 10
10.86392281207284
 20
5.255571953569887
 42
-0.4142135623597758
 10
10.8739228120726
 20
5.245571953569669
 10
10.8739228120726
 20
5.000571953568869
 42
-0.4142135623730951
 10
10.86392281207284
 20
4.99057195356865
 10
10.72392281207251
 20
4.99057195356865
 42
-0.4142135623730951
 10
10.70392281207208
 20
5.010571953569087
 10
10.70392281207208
 20
5.030571953569523
 42
0.4142135623730951
 10
10.68392281207209
 20
5.05057195356996
 10
10.66392281207211
 20
5.05057195356996
 42
0.414213562373095
 10
10.64392281207213
 20
5.030571953569523
 10
10.64392281207213
 20
5.000571953568869
 42
-0.4142135623730951
 10
10.63392281207191
 20
4.99057195356865
 10
10.39892281207179
 20
4.99057195356865
 42
0.9999999999999998
 10
10.39892281207179
 20
4.890571953570105
 10
10.48142281207222
 20
4.890571953568287
 10
10.49642281207164
 20
4.905571953567704
 10
10.51142281207106
 20
4.890571953568287
 10
10.91092281207105
 20
4.890571953568287
 10
10.9109228120715
 20
4.847571953568621
 42
-0.4142135623597758
 10
10.90092281207174
 20
4.837571953568403
 10
10.87242281207184
 20
4.837571953568403
 42
0.9999999999999998
 10
10.87242281207184
 20
4.774571953568301
 10
10.9339228120721
 20
4.774571953568301
 42
0.4142135623764248
 10
10.9739228120716
 20
4.814571953567355
 10
10.97392281207206
 20
6.47557195357287
 42
-0.4142135623730951
 10
10.98392281207228
 20
6.485571953573089
 10
11.04392281207222
 20
6.485571953573089
 42
0.4142135623797547
 10
11.0639228120722
 20
6.505571953571706
 10
11.0639228120722
 20
6.605571953570251
 42
0.4142135623664355
 10
11.04392281207222
 20
6.625571953570688
 10
6.829999732072138
 20
6.625571953570688
 42
0.4142135623664353
 10
6.809999732072611
 20
6.605571953570251
 10
6.809999732072611
 20
6.573571953571008
 42
-0.4142135623730951
 10
6.799999732072393
 20
6.563571953570789
 10
6.569499732072728
 20
6.56357195356897
 42
0.4142135623730951
 10
6.559499731597753
 20
6.553571953570571
 42
-0.4142135623730951
 10
6.549499731597535
 20
6.543571953570353
 10
6.319499732547484
 20
6.543571953570353
 42
-0.4142135623997334
 10
6.309499732072509
 20
6.553571953570571
 42
0.4142135623730951
 10
6.299499732072291
 20
6.563571953570789
 10
6.093999732072262
 20
6.563571953570789
 42
0.4142135623775348
 10
6.063999732072517
 20
6.533571953571954
 10
6.063999732072517
 20
5.565571953569378
 42
-0.4142135623764248
 10
6.023999732072553
 20
5.525571953570324
 10
5.766366384257963
 20
5.525571953570324
 42
-0.2001604496851417
  0
DIMENSION
  5
CE
330
1F
100
AcDbEntity
  8
0
100
AcDbDimension
  2
*D5
 10
11.04392281207222
 20
7.289406737346446
 30
0.0
 11
8.36610049119025
 21
7.289406737346446
 31
0.0
 70
    32
 71
     5
 42
5.355644641763947
  3
Standard
100
AcDbAlignedDimension
 13
5.688278170308277
 23
5.490514566953623
 33
0.0
 14
11.04392281207222
 24
6.625571953570688
 34
0.0
100
AcDbRotatedDimension
1001
ACAD
1000
DSTYLE
1002
{
1070
    40
1040
0.5208333333333334
1002
}
  0
DIMENSION
  5
DC
330
1F
100
AcDbEntity
  8
0
100
AcDbDimension
  2
*D6
 10
4.837457280200581
 20
4.892571953568695
 30
0.0
 11
4.83745728020058
 21
5.759071953569693
 31
0.0
 70
    32
 71
     5
 42
1.733000000001993
  3
Standard
100
AcDbAlignedDimension
 13
6.829999732072138
 23
6.625571953570688
 33
0.0
 14
6.10399973207248
 24
4.892571953568694
 34
0.0
 50
90.0
100
AcDbRotatedDimension
1001
ACAD
1000
DSTYLE
1002
{
1070
    40
1040
0.5208333333333334
1002
}
  0
TEXT
  5
EA
330
1F
100
AcDbEntity
  8
tx
100
AcDbText
 10
6.318609174659265
 20
3.865923307578747
 30
0.0
 40
0.09375
  1
SCALE : 1"=1"
 11
6.318609174659265
 21
3.959673307578747
 31
0.0
100
AcDbText
 73
     3
  0
TEXT
  5
EB
330
1F
100
AcDbEntity
  8
0
 62
     3
100
AcDbText
 10
6.318609174659265
 20
4.14714499294083
 30
0.0
 40
0.1125
  1
2Part 6" Single Face Body Part #1926
100
AcDbText
  0
LWPOLYLINE
  5
EC
330
1F
100
AcDbEntity
  8
0
 62
     5
100
AcDbPolyline
 90
        2
 70
     0
 43
0.01875
 10
6.224873331978223
 20
4.053409150259788
 10
10.28490458197822
 20
4.053409150259788
  0
ENDSEC
  0
SECTION
  2
OBJECTS
  0
DICTIONARY
  5
C
330
0
100
AcDbDictionary
281
     1
  3
ACAD_COLOR
350
B2
  3
ACAD_GROUP
350
D
  3
ACAD_LAYOUT
350
1A
  3
ACAD_MATERIAL
350
B1
  3
ACAD_MLINESTYLE
350
17
  3
ACAD_PLOTSETTINGS
350
19
  3
ACAD_PLOTSTYLENAME
350
E
  3
ACAD_TABLESTYLE
350
B3
  3
ACDBHEADERROUNDTRIPXREC
350
F3
  3
AcDbVariableDictionary
350
EE
  0
DICTIONARY
  5
C1
330
2
100
AcDbDictionary
280
     1
281
     1
  3
ACAD_LAYERSTATES
360
C2
  0
DICTIONARY
  5
B2
102
{ACAD_REACTORS
330
C
102
}
330
C
100
AcDbDictionary
281
     1
  0
DICTIONARY
  5
D
102
{ACAD_REACTORS
330
C
102
}
330
C
100
AcDbDictionary
281
     1
  0
DICTIONARY
  5
1A
102
{ACAD_REACTORS
330
C
102
}
330
C
100
AcDbDictionary
281
     1
  3
Layout1
350
1E
  3
Layout2
350
26
  3
Model
350
22
  0
DICTIONARY
  5
B1
102
{ACAD_REACTORS
330
C
102
}
330
C
100
AcDbDictionary
281
     1
  0
DICTIONARY
  5
17
102
{ACAD_REACTORS
330
C
102
}
330
C
100
AcDbDictionary
281
     1
  3
Standard
350
18
  0
DICTIONARY
  5
19
102
{ACAD_REACTORS
330
C
102
}
330
C
100
AcDbDictionary
281
     1
  0
ACDBDICTIONARYWDFLT
  5
E
102
{ACAD_REACTORS
330
C
102
}
330
C
100
AcDbDictionary
281
     1
  3
Normal
350
F
100
AcDbDictionaryWithDefault
340
F
  0
DICTIONARY
  5
B3
102
{ACAD_REACTORS
330
C
102
}
330
C
100
AcDbDictionary
281
     1
  3
Standard
350
B4
  0
DICTIONARY
  5
F3
102
{ACAD_REACTORS
330
C
102
}
330
C
100
AcDbDictionary
281
     1
  0
DICTIONARY
  5
EE
102
{ACAD_REACTORS
330
C
102
}
330
C
100
AcDbDictionary
281
     1
  3
CTABLESTYLE
350
EF
  3
DIMASSOC
350
F0
  3
PROJECTNAME
350
F1
  0
DICTIONARY
  5
C2
102
{ACAD_REACTORS
330
C1
102
}
330
C1
100
AcDbDictionary
281
     1
  0
LAYOUT
  5
1E
102
{ACAD_XDICTIONARY
360
F4
102
}
102
{ACAD_REACTORS
330
1A
102
}
330
1A
100
AcDbPlotSettings
  1

  2
EPSON Stylus COLOR 3000
  4

  6

 40
0.0
 41
0.0
 42
0.0
 43
0.0
 44
0.0
 45
0.0
 46
0.0
 47
0.0
 48
0.0
 49
0.0
140
0.0
141
0.0
142
1.0
143
1.0
 70
   688
 72
     0
 73
     0
 74
     5
  7

 75
    16
147
1.0
148
0.0
149
0.0
100
AcDbLayout
  1
Layout1
 70
     1
 71
     1
 10
0.0
 20
0.0
 11
12.0
 21
9.0
 12
0.0
 22
0.0
 32
0.0
 14
1.000000000000000E+20
 24
1.000000000000000E+20
 34
1.000000000000000E+20
 15
-1.000000000000000E+20
 25
-1.000000000000000E+20
 35
-1.000000000000000E+20
146
0.0
 13
0.0
 23
0.0
 33
0.0
 16
1.0
 26
0.0
 36
0.0
 17
0.0
 27
1.0
 37
0.0
 76
     0
330
1B
  0
LAYOUT
  5
26
102
{ACAD_XDICTIONARY
360
F8
102
}
102
{ACAD_REACTORS
330
1A
102
}
330
1A
100
AcDbPlotSettings
  1

  2
EPSON Stylus COLOR 3000
  4

  6

 40
0.0
 41
0.0
 42
0.0
 43
0.0
 44
0.0
 45
0.0
 46
0.0
 47
0.0
 48
0.0
 49
0.0
140
0.0
141
0.0
142
1.0
143
1.0
 70
   688
 72
     0
 73
     0
 74
     5
  7

 75
    16
147
1.0
148
0.0
149
0.0
100
AcDbLayout
  1
Layout2
 70
     1
 71
     2
 10
0.0
 20
0.0
 11
12.0
 21
9.0
 12
0.0
 22
0.0
 32
0.0
 14
0.0
 24
0.0
 34
0.0
 15
0.0
 25
0.0
 35
0.0
146
0.0
 13
0.0
 23
0.0
 33
0.0
 16
1.0
 26
0.0
 36
0.0
 17
0.0
 27
1.0
 37
0.0
 76
     0
330
23
  0
LAYOUT
  5
22
102
{ACAD_XDICTIONARY
360
F6
102
}
102
{ACAD_REACTORS
330
1A
102
}
330
1A
100
AcDbPlotSettings
  1

  2
EPSON Stylus COLOR 3000
  4

  6

 40
0.0
 41
0.0
 42
0.0
 43
0.0
 44
0.0
 45
0.0
 46
0.0
 47
0.0
 48
0.0
 49
0.0
140
0.0
141
0.0
142
1.0
143
1.0
 70
  1712
 72
     0
 73
     0
 74
     0
  7

 75
     0
147
1.0
148
0.0
149
0.0
100
AcDbLayout
  1
Model
 70
     1
 71
     0
 10
0.0
 20
0.0
 11
12.0
 21
9.0
 12
0.0
 22
0.0
 32
0.0
 14
0.0
 24
0.0
 34
0.0
 15
0.0
 25
0.0
 35
0.0
146
0.0
 13
0.0
 23
0.0
 33
0.0
 16
1.0
 26
0.0
 36
0.0
 17
0.0
 27
1.0
 37
0.0
 76
     0
330
1F
  0
MLINESTYLE
  5
18
102
{ACAD_REACTORS
330
17
102
}
330
17
100
AcDbMlineStyle
  2
STANDARD
 70
     0
  3

 62
   256
 51
90.0
 52
90.0
 71
     2
 49
0.5
 62
   256
  6
BYLAYER
 49
-0.5
 62
   256
  6
BYLAYER
  0
ACDBPLACEHOLDER
  5
F
102
{ACAD_REACTORS
330
E
102
}
330
E
  0
TABLESTYLE
  5
B4
102
{ACAD_REACTORS
330
B3
102
}
330
B3
100
AcDbTableStyle
  3
Standard
 70
     0
 71
     0
 40
0.06
 41
0.06
280
     0
281
     0
  7
Standard
140
0.18
170
     2
 62
     0
 63
     7
283
     0
274
    -2
284
     1
 64
     0
275
    -2
285
     1
 65
     0
276
    -2
286
     1
 66
     0
277
    -2
287
     1
 67
     0
278
    -2
288
     1
 68
     0
279
    -2
289
     1
 69
     0
  7
Standard
140
0.25
170
     5
 62
     0
 63
     7
283
     0
274
    -2
284
     1
 64
     0
275
    -2
285
     1
 65
     0
276
    -2
286
     1
 66
     0
277
    -2
287
     1
 67
     0
278
    -2
288
     1
 68
     0
279
    -2
289
     1
 69
     0
  7
Standard
140
0.18
170
     5
 62
     0
 63
     7
283
     0
274
    -2
284
     1
 64
     0
275
    -2
285
     1
 65
     0
276
    -2
286
     1
 66
     0
277
    -2
287
     1
 67
     0
278
    -2
288
     1
 68
     0
279
    -2
289
     1
 69
     0
  0
DICTIONARYVAR
  5
EF
102
{ACAD_REACTORS
330
EE
102
}
330
EE
100
DictionaryVariables
280
     0
  1
STANDARD
  0
DICTIONARYVAR
  5
F0
102
{ACAD_REACTORS
330
EE
102
}
330
EE
100
DictionaryVariables
280
     0
  1
1
  0
DICTIONARYVAR
  5
F1
102
{ACAD_REACTORS
330
EE
102
}
330
EE
100
DictionaryVariables
280
     0
  1

  0
DICTIONARY
  5
F4
330
1E
100
AcDbDictionary
280
     1
281
     1
  3
ACAD_XREC_ROUNDTRIP
360
F5
  0
DICTIONARY
  5
F8
330
26
100
AcDbDictionary
280
     1
281
     1
  3
ACAD_XREC_ROUNDTRIP
360
F9
  0
DICTIONARY
  5
F6
330
22
100
AcDbDictionary
280
     1
281
     1
  3
ACAD_XREC_ROUNDTRIP
360
F7
  0
XRECORD
  5
F5
102
{ACAD_REACTORS
330
F4
102
}
330
F4
100
AcDbXrecord
280
     1
102
SHADEPLOT
 70
     0
102
SHADEPLOTRESLEVEL
 70
     2
102
SHADEPLOTCUSTOMDPI
 70
   300
  0
XRECORD
  5
F9
102
{ACAD_REACTORS
330
F8
102
}
330
F8
100
AcDbXrecord
280
     1
102
SHADEPLOT
 70
     0
102
SHADEPLOTRESLEVEL
 70
     2
102
SHADEPLOTCUSTOMDPI
 70
   300
  0
XRECORD
  5
F7
102
{ACAD_REACTORS
330
F6
102
}
330
F6
100
AcDbXrecord
280
     1
102
SHADEPLOT
 70
     0
102
SHADEPLOTRESLEVEL
 70
     2
102
SHADEPLOTCUSTOMDPI
 70
   300
  0
ENDSEC
  0
EOF
